Novedades

 
Dioses de Egipto (2016)
Kiki, el amor se hace (2016)
X-Men: Apocalipsis (2016)
El otro lado de la puerta (2016)
El olivo (2016)
Los Conspiradores (2016)
Los ojos del gato (1985)
The Darkness: La Oscuridad (2016)
1944 (2015)
Ninja Turtles: Fuera Fuera De Las Sombras (2016)
ARQ (2016)
Horns (2014)
El Puente De Los Espías [HDRip AC3 5.1 Español+Subt. forzados] [2015 Thriller]
Deadpool (2016)
Una Tribu En La Cancha (1994)
Mad Max: Furia en la carretera (2015)
Mr. Holmes (2015)
Jurassic World (2015)
John Wick (Otro día para matar) (2014)
Into the Woods (2014)
Ant-Man (2015)
El corredor del laberinto (2014)
El corredor del laberinto: Las pruebas (2015)
Cincuenta sombras de Grey (2015)
Misión Imposible: Nación secreta (2015)
Titanic (1997)
Cazador de demonios (2012)
Cautivos (2014)
Anacleto: Agente secreto  (2015)
Del Revés (2015)
Los Minions (2015)
Vengadores: La era de Ultron (2015)
La sombra del actor (2014)
Interstellar (2014)
Fuego (2014)
Exodus, Dioses y Reyes (2014)
El Hobbit, La batalla de los cinco ejércitos (2014)
Asalto al furgon blindado (2013)
Celda 211 (2009)
Birdman (2014)
The Amazing Spider-Man 2, El poder de Electro (2014)
22 Balas (2010)
La isla minima (2014)
El Niño (2014)
Dracula, la leyenda jamas contada (2014)
Caminando entre las tumbas (2014)
Abierto hasta el amanecer (1995)
Yo, Frankenstein (2014)
Beethoven: La búsqueda del tesoro (2014)
Hercules: The Thracian War (2014)
Tarzan (2013)
Tokarev (2014)
2 francos, 40 pesetas (2014)
El protector (2013)
Hércules. El origen de la leyenda (2014)
Oblivion (2013)
3 días para matar (2014)
Monuments Men (2014)
Thor: El mundo oscuro (2013)
Noe (2014)
Monsters University (2013)
La leyenda del samurai (47 Ronin) (2013)
Malefica (2014)
300: El Origen De Un Imperio (2014)
La gran revancha (2013)
Paranormal activity. Los señalados (2013)
Duda razonable (2014)
Séptimo (2013)
El Hobbit, La desolación de Smaug (2013)
The woman (2011)
Cuerpos Especiales (2013)
Colonia V (2013)
Capitan Phillips (2013)
 ¿Quien mató a Bambi? (2013)
Zipi y Zape y el club de la canica (2013)
Las tortugas Ninja. La hora de la verdad (2014)
Para Elisa (2013)
El peso de la maldad (2012)
Falso culpable (2011)
Punisher 2:zona de guerra (2008)
Dolor y Dinero (2013)
Los Pitufos 2 (2013)
Operacion E (2013)
Mama (2013)
Parker (2013)
2 Guns (2013)
Asalto al Poder (2013)
El Hombre De Acero (2013)
El Llanero Solitario (2013)
Elysium (2013)
Lluvia de albóndigas 2 (2013)
Plan en Las Vegas (2013)
R.I.P.D. Departamento De Policía Mortal (2013)
Asalto al Tren Pelham 123 (2009)
Argo (2012)
Guerra Mundial Z (2013)
Venganza 2, Conexion Estambul (2012)
Hijo de Cain (2013)
Jack Reacher (2012)
The Host (La huesped) (2013)
La Trama (2013)
Los elegidos (Dark Skies) (2013)
Runner, Runner (2013)
jOBS (2013)
Canibal (2013)
 

RECUERDA: El uso de la etiqueta HIDE y el de Icono de Nuevos Aportes ES OBLIGATORIO

Autor Tema: Beethoven: La búsqueda del tesoro [Dvdrip][aventuras][castellano][2014][mega+upt  (Leído 498 veces)

0 Usuarios y 1 Visitante están viendo este tema.

  • Colaborad@r
  • *
  • Panel de agradecimientos
  • -Tu has dado: 10
  • -Tu has recibido: 383
  • Puntos: 2618
  • Mensajes: 218
  • -Medallas-
  • Karma: 495
    • Actividad:
      0%
  • Sistema Operativo:
  • Windows NT 6.3 Windows NT 6.3
  • Navegador:
  • Chrome 37.0.2062.120 Chrome 37.0.2062.120
  • Premios Por tu colaboración en Cine
    • Ver Perfil
    • masseriesenvena
    • Premios



Título original
Beethoven's Treasure Tail
Año
2014
Duración
97 min.
País
Estados Unidos
Director
Ron Oliver
Música
Chris Hajian
Fotografía
C. Kim Miles
Reparto
Jonathan Silverman, Bretton Manley, Kristy Swanson, Morgan Fairchild, Udo Kier
Productora
Universal 1440 Entertainment
Género
Comedia. Aventuras | Perros/Lobos. Cine familiar
Sinopsis
Después de un desastre una sesión de cine, el perro de gran corazón y su entrenador, Eddie (Jonathan Silverman, de Beethoven Big Break), se dirigen a casa cuando quedan varados en un pequeño pueblo costero. Cuando Beethoven se hace amigo de un chico de la zona (Bretton Manley, Ted), que le ayuda a encontrar un mapa pirata del tesoro perdido y juntos en una aventura desopilante en toda la ciudad.




Mostrar
General
Complete name                            : E:\lilla2804\Downloads\Beethoven tesoro.DVDR.LL.avi
Format                                   : AVI
Format/Info                              : Audio Video Interleave
File size                                : 1 019 MiB
Duration                                 : 1h 37mn
Overall bit rate                         : 1 467 Kbps
Writing application                      : VirtualDubMod 1.5.10.2 (build 2540/release)
Writing library                          : VirtualDubMod build 2540/release

Video
ID                                       : 0
Format                                   : MPEG-4 Visual
Format profile                           : Advanced Simple@L5
Format settings, BVOP                    : 2
Format settings, QPel                    : No
Format settings, GMC                     : No warppoints
Format settings, Matrix                  : Default (H.263)
Codec ID                                 : XVID
Codec ID/Hint                            : XviD
Duration                                 : 1h 37mn
Bit rate                                 : 1 010 Kbps
Width                                    : 720 pixels
Height                                   : 400 pixels
Display aspect ratio                     : 16:9
Frame rate                               : 23.976 fps
Color space                              : YUV
Chroma subsampling                       : 4:2:0
Bit depth                                : 8 bits
Scan type                                : Progressive
Compression mode                         : Lossy
Bits/(Pixel*Frame)                       : 0.146
Stream size                              : 702 MiB (69%)
Writing library                          : XviD 1.2.1 (UTC 2008-12-04)

Audio
ID                                       : 1
Format                                   : AC-3
Format/Info                              : Audio Coding 3
Mode extension                           : CM (complete main)
Format settings, Endianness              : Big
Codec ID                                 : 2000
Duration                                 : 1h 37mn
Bit rate mode                            : Constant
Bit rate                                 : 448 Kbps
Channel(s)                               : 6 channels
Channel positions                        : Front: L C R, Side: L R, LFE
Sampling rate                            : 48.0 KHz
Bit depth                                : 16 bits
Compression mode                         : Lossy
Stream size                              : 311 MiB (31%)
Alignment                                : Split accross interleaves
Interleave, duration                     : 42 ms (1.00 video frame)
Interleave, preload duration             : 500 ms

cortado con winrar


 
« Última modificación: Diciembre 01, 2014, 10:41:10 am por Jorama70 »



No Tienes Permisos Para Dar Puntos
point 0 Puntos

Este tema no recibió puntos.

 


Aviso Legal -