Novedades

 
xXx: Reactivado
La Gran Muralla
Vaiana
Inferno
La Comuna
Las Inocentes
Underworld: Guerras De Sangre
Somnia, Dentro De Tus Sueños
Silencio (Silence)
Frank & Lola
Rogue One
Assassin's Creed
1898. Los Ultimos De Filipinas
Dioses de Egipto (2016)
Kiki, el amor se hace (2016)
X-Men: Apocalipsis (2016)
El otro lado de la puerta (2016)
El olivo (2016)
Los Conspiradores (2016)
Los ojos del gato (1985)
The Darkness: La Oscuridad (2016)
1944 (2015)
Ninja Turtles: Fuera Fuera De Las Sombras (2016)
ARQ (2016)
Horns (2014)
El Puente De Los Espías [HDRip AC3 5.1 Español+Subt. forzados] [2015 Thriller]
Deadpool (2016)
Una Tribu En La Cancha (1994)
Mad Max: Furia en la carretera (2015)
Mr. Holmes (2015)
Jurassic World (2015)
John Wick (Otro día para matar) (2014)
Into the Woods (2014)
Ant-Man (2015)
El corredor del laberinto (2014)
El corredor del laberinto: Las pruebas (2015)
Cincuenta sombras de Grey (2015)
Misión Imposible: Nación secreta (2015)
Titanic (1997)
Cazador de demonios (2012)
Cautivos (2014)
Anacleto: Agente secreto  (2015)
Del Revés (2015)
Los Minions (2015)
Vengadores: La era de Ultron (2015)
La sombra del actor (2014)
Interstellar (2014)
Fuego (2014)
Exodus, Dioses y Reyes (2014)
El Hobbit, La batalla de los cinco ejércitos (2014)
Asalto al furgon blindado (2013)
Celda 211 (2009)
Birdman (2014)
The Amazing Spider-Man 2, El poder de Electro (2014)
22 Balas (2010)
La isla minima (2014)
El Niño (2014)
Dracula, la leyenda jamas contada (2014)
Caminando entre las tumbas (2014)
Abierto hasta el amanecer (1995)
Yo, Frankenstein (2014)
Beethoven: La búsqueda del tesoro (2014)
Hercules: The Thracian War (2014)
Tarzan (2013)
Tokarev (2014)
2 francos, 40 pesetas (2014)
El protector (2013)
Hércules. El origen de la leyenda (2014)
Oblivion (2013)
3 días para matar (2014)
Monuments Men (2014)
Thor: El mundo oscuro (2013)
Noe (2014)
Monsters University (2013)
La leyenda del samurai (47 Ronin) (2013)
Malefica (2014)
300: El Origen De Un Imperio (2014)
La gran revancha (2013)
Paranormal activity. Los señalados (2013)
Duda razonable (2014)
Séptimo (2013)
El Hobbit, La desolación de Smaug (2013)
The woman (2011)
Cuerpos Especiales (2013)
Colonia V (2013)
Capitan Phillips (2013)
 ¿Quien mató a Bambi? (2013)
Zipi y Zape y el club de la canica (2013)
Las tortugas Ninja. La hora de la verdad (2014)
Para Elisa (2013)
El peso de la maldad (2012)
Falso culpable (2011)
Punisher 2:zona de guerra (2008)
Dolor y Dinero (2013)
Los Pitufos 2 (2013)
Operacion E (2013)
Mama (2013)
Parker (2013)
2 Guns (2013)
Asalto al Poder (2013)
El Hombre De Acero (2013)
El Llanero Solitario (2013)
Elysium (2013)
Lluvia de albóndigas 2 (2013)
Plan en Las Vegas (2013)
R.I.P.D. Departamento De Policía Mortal (2013)
Asalto al Tren Pelham 123 (2009)
Argo (2012)
Guerra Mundial Z (2013)
Venganza 2, Conexion Estambul (2012)
Hijo de Cain (2013)
Jack Reacher (2012)
The Host (La huesped) (2013)
La Trama (2013)
Los elegidos (Dark Skies) (2013)
Runner, Runner (2013)
jOBS (2013)
Canibal (2013)
 

RECUERDA: El uso de la etiqueta HIDE y el de Icono de Nuevos Aportes ES OBLIGATORIO

Autor Tema: Los Ojos Del Gato [HDRip][Dual:Cast/Ing AC3][Terror][1985]  (Leído 562 veces)

0 Usuarios y 1 Visitante están viendo este tema.

  • Principiante.
  • *
  • Panel de agradecimientos
  • -Tu has dado: 9
  • -Tu has recibido: 184
  • Puntos: 88
  • Mensajes: 57
  • País:
    es
  • -Medallas-
  • Karma: 195
    • Actividad:
      0%
  • Sistema Operativo:
  • Windows 7/Server 2008 R2 Windows 7/Server 2008 R2
  • Navegador:
  • Firefox 49.0 Firefox 49.0
    • Ver Perfil
    • Premios
Los Ojos Del Gato [HDRip][Dual:Cast/Ing AC3][Terror][1985]
« en: Octubre 12, 2016, 05:01:50 pm »




Título original
    Cat's Eye
Año
    1985
Duración
    94 min.
País
    Estados Unidos Estados Unidos
Director
    Lewis Teague
Guión
    Stephen King
Música
    Alan Silvestri
Fotografía
    Jack Cardiff
Reparto
    Drew Barrymore, James Woods, Alan King, Kenneth McMillan, Robert Hays, Candy Clark, Mary D'Arcy, James Rebhorn, James Naughton, Patricia Kalember, Mike Starr, Charles Dutton, Tony Munafo, Court Miller, Russell Horton, Patricia Benson
Productora
    Dino de Laurentiis / MGM
Género
    Terror. Thriller | Animales. Gatos. Película de episodios
Grupos
    Adaptaciones de Stephen King Novedad
Sinopsis
    Tres diferentes historias escritas por Stephen King y entrelazadas por un gato; la primera relata la historia de un hombre que intenta dejar de fumar. La segunda gira en torno a una peligrosa apuesta y la última el único que puede salvar la vida de una niña de un duende diabólico es el mismo gato.

Mostrar

General
Format                                   : AVI
Format/Info                              : Audio Video Interleave
File size                                : 1.81 GiB
Duration                                 : 1h 34mn
Overall bit rate                         : 2 747 Kbps
Writing application                      : VirtualDubMod 1.5.10.2 (build 2540/release)
Writing library                          : VirtualDubMod build 2540/release

Video
ID                                       : 0
Format                                   : MPEG-4 Visual
Format profile                           : Advanced Simple@L5
Format settings, BVOP                    : 2
Format settings, QPel                    : No
Format settings, GMC                     : No warppoints
Format settings, Matrix                  : Default (H.263)
Codec ID                                 : XVID
Codec ID/Hint                            : XviD
Duration                                 : 1h 34mn
Bit rate                                 : 2 349 Kbps
Width                                    : 720 pixels
Height                                   : 304 pixels
Display aspect ratio                     : 2.35:1
Frame rate                               : 23.976 fps
Color space                              : YUV
Chroma subsampling                       : 4:2:0
Bit depth                                : 8 bits
Scan type                                : Progressive
Compression mode                         : Lossy
Bits/(Pixel*Frame)                       : 0.448
Stream size                              : 1.55 GiB (86%)
Writing library                          : XviD 1.2.1 (UTC 2008-12-04)

Audio #1
ID                                       : 1
Format                                   : AC-3
Format/Info                              : Audio Coding 3
Mode extension                           : CM (complete main)
Format settings, Endianness              : Big
Codec ID                                 : 2000
Duration                                 : 1h 34mn
Bit rate mode                            : Constant
Bit rate                                 : 192 Kbps
Channel count                            : 2 channels
Channel positions                        : Front: L R
Sampling rate                            : 48.0 KHz
Bit depth                                : 16 bits
Compression mode                         : Lossy
Stream size                              : 129 MiB (7%)
Alignment                                : Split accross interleaves
Interleave, duration                     : 42 ms (1.00 video frame)
Interleave, preload duration             : 500 ms

Audio #2
ID                                       : 2
Format                                   : AC-3
Format/Info                              : Audio Coding 3
Format profile                           : Dolby Digital
Mode extension                           : CM (complete main)
Format settings, Endianness              : Big
Codec ID                                 : 2000
Duration                                 : 1h 34mn
Bit rate mode                            : Constant
Bit rate                                 : 192 Kbps
Channel count                            : 2 channels
Channel positions                        : Front: L R
Sampling rate                            : 48.0 KHz
Bit depth                                : 16 bits
Compression mode                         : Lossy
Stream size                              : 129 MiB (7%)
Alignment                                : Split accross interleaves
Interleave, duration                     : 42 ms (1.00 video frame)
Interleave, preload duration             : 500 ms







 



« Última modificación: Febrero 09, 2017, 05:13:55 pm por shinurka »



No Tienes Permisos Para Dar Puntos
point 1 Puntos

Usuarios que puntuaron el tema » shinurka (1 Pts) 

  • Novato.
  • *
  • Panel de agradecimientos
  • -Tu has dado: 0
  • -Tu has recibido: 1
  • Puntos: 9
  • Mensajes: 4
  • País:
    ar
  • -Medallas-
  • Karma: 1
    • Actividad:
      0%
  • Sistema Operativo:
  • Windows XP Windows XP
  • Navegador:
  • Firefox 51.0 Firefox 51.0
    • Ver Perfil
    • Premios
Re:Los ojos del gato [HDRip][Dual:Cast/Ing AC3][Terror][1985]
« Respuesta #1 en: Febrero 09, 2017, 01:44:00 pm »
Gracias por este clasico!

  • Novato.
  • *
  • Panel de agradecimientos
  • -Tu has dado: 1
  • -Tu has recibido: 1
  • Puntos: 8
  • Mensajes: 4
  • País:
    es
  • -Medallas-
  • Karma: 1
    • Actividad:
      0.1%
  • Sistema Operativo:
  • Windows Vista/Server 2008 Windows Vista/Server 2008
  • Navegador:
  • Chrome 49.0.2623.112 Chrome 49.0.2623.112
    • Ver Perfil
    • Premios
Re:Los Ojos Del Gato [HDRip][Dual:Cast/Ing AC3][Terror][1985]
« Respuesta #2 en: Marzo 11, 2017, 11:34:14 am »
Otra que me llevo, muchas gracias  :o25:

  • Principiante.
  • *
  • Panel de agradecimientos
  • -Tu has dado: 0
  • -Tu has recibido: 38
  • Puntos: 73
  • Mensajes: 69
  • País:
    es
  • -Medallas-
  • Karma: 38
    • Actividad:
      0%
  • Sistema Operativo:
  • Windows 7/Server 2008 R2 Windows 7/Server 2008 R2
  • Navegador:
  • Firefox 52.0 Firefox 52.0
    • Ver Perfil
    • Premios
Re:Los Ojos Del Gato [HDRip][Dual:Cast/Ing AC3][Terror][1985]
« Respuesta #3 en: Marzo 22, 2017, 10:41:22 pm »
 :o57: ¡Muchas gracias!

  • Novato.
  • *
  • Panel de agradecimientos
  • -Tu has dado: 0
  • -Tu has recibido: 1
  • Puntos: 11
  • Mensajes: 7
  • País:
    es
  • -Medallas-
  • Karma: 1
    • Actividad:
      0.7%
  • Sistema Operativo:
  • Windows NT 6.3 Windows NT 6.3
  • Navegador:
  • Chrome 57.0.2987.133 Chrome 57.0.2987.133
    • Ver Perfil
    • Premios
Re:Los Ojos Del Gato [HDRip][Dual:Cast/Ing AC3][Terror][1985]
« Respuesta #4 en: Abril 30, 2017, 10:32:00 am »
 :o54: Muchas gracias por el aportazo!

 


Aviso Legal -